猫九酱Sakura-粉色圣诞兔 收藏

[套图名称] : 猫九酱Sakura-粉色圣诞兔
[出境模特] : 猫九酱
[套图尺寸] : 5472x3648
[套图大小] : 46P+1V/484.5M
[下载方式] : 百度网盘
[下载地址] : 点此获取下载地址 (VIP会员免积分下载)
下载包内为原版高清套图和视频,绝不含第三方水印!
[在线观看] : 第1段
[套图预览] : 猫九酱Sakura-粉色圣诞兔 第1张
[视频名称] : 粉色项目.mp4
[视频尺寸] : 750x1000
[视频大小] : 1mp4/175.7M
[视频时长] : 00:02:26
[视频编码] :
Stream #0:0(eng): Video: h264 (Main) (avc1 / 0x31637661), yuv420p(tv, bt709), 750x1000, 9763 kb/s, 23.98 fps, 23.98 tbr, 24k tbn, 47.95 tbc (default)
Stream #0:1(eng): Audio: aac (LC) (mp4a / 0x6134706D), 48000 Hz, stereo, fltp, 317 kb/s (default)
[视频预览] : 猫九酱Sakura-粉色圣诞兔 第1张

有用 (8)

评论加载中...