Allure Girls – HD Aom 2 收藏

[视频名称] : Allure Girls - HD Aom 2.MP4
[视频尺寸] : 1920x1080
[视频大小] : 1mp4/38.1M
[视频时长] : 00:01:00
[视频编码] :
Stream #0:0(eng): Video: h264 (Main) (avc1 / 0x31637661), yuv420p(tv), 1920x1080 [SAR 100:100 DAR 16:9], 5004 kb/s, 25 fps, 25 tbr, 25k tbn, 50 tbc (default)
Stream #0:1(eng): Audio: aac (LC) (mp4a / 0x6134706D), 48000 Hz, stereo, fltp, 317 kb/s (default)
[下载方式] : 百度网盘
[下载地址] : 点此获取下载地址 (售价:10积分)
下载包内为原版高清视频,绝不含第三方水印!
[在线观看] : 第1段
[视频预览] : Allure Girls – HD Aom 2 第1张

有用 (0)

评论加载中...